<?xml version="1.0" standalone="no"?>
<!DOCTYPE svg PUBLIC "-//W3C//DTD SVG 1.1//EN" "http://www.w3.org/Graphics/SVG/1.1/DTD/svg11.dtd" >
<svg xmlns="http://www.w3.org/2000/svg">
<metadata>Generated by IcoMoon</metadata>
<defs>
<font id="EccoItaliaIcons" horiz-adv-x="1024">
<font-face units-per-em="1024" ascent="960" descent="-64" />
<missing-glyph horiz-adv-x="1024" />
<glyph unicode="&#x20;" horiz-adv-x="512" d="" />
<glyph unicode="&#xe900;" glyph-name="bell-notification" d="M896 682.666c0-82.347-66.987-149.333-149.333-149.333s-149.333 66.986-149.333 149.333c0 82.347 66.987 149.333 149.333 149.333s149.333-66.987 149.333-149.333zM810.667 456.96c-21.333-5.547-42.667-8.96-64-8.96-62.204 0.111-121.826 24.87-165.811 68.855-43.981 43.985-68.745 103.608-68.855 165.811 0 62.72 24.747 119.467 64 161.707-7.744 9.492-17.506 17.136-28.578 22.377s-23.172 7.945-35.422 7.916c-46.933 0-85.333-38.4-85.333-85.333v-12.373c-126.72-37.547-213.333-154.027-213.333-286.293v-256l-85.333-85.333v-42.667h768v42.667l-85.333 85.333v222.293zM512-21.333c47.36 0 85.333 37.973 85.333 85.333h-170.667c0-22.63 8.99-44.335 24.994-60.339s37.709-24.994 60.339-24.994z" />
<glyph unicode="&#xe901;" glyph-name="bookmark" d="M213.333 64v682.667c0 23.467 8.363 43.563 25.088 60.288s36.807 25.073 60.245 25.045h426.667c23.467 0 43.563-8.363 60.288-25.088s25.075-36.807 25.045-60.245v-682.667l-298.667 128-298.667-128zM298.667 194.133l213.333 91.733 213.333-91.733v552.533h-426.667v-552.533z" />
<glyph unicode="&#xe902;" glyph-name="bookmark-add" d="M213.333 64v682.667c0 23.467 8.363 43.563 25.088 60.288s36.807 25.073 60.245 25.045h256v-85.333h-256v-552.533l213.333 91.733 213.333-91.733v296.533h85.333v-426.667l-298.667 128-298.667-128zM725.333 576v85.333h-85.333v85.333h85.333v85.333h85.333v-85.333h85.333v-85.333h-85.333v-85.333h-85.333z" />
<glyph unicode="&#xe903;" glyph-name="bookmark-added" d="M760.533 576l-120.533 120.533 59.733 60.8 60.8-60.8 150.4 151.467 60.8-60.8-211.2-211.2zM213.333 64v682.667c0 23.467 8.363 43.563 25.088 60.288s36.807 25.074 60.245 25.045h298.667c-14.221-21.333-24.887-41.785-32-61.355s-10.667-41.785-10.667-66.645c0-51.2 16.171-96.355 48.512-135.467s73.058-63.646 122.155-73.6c16.354-2.133 30.579-3.2 42.667-3.2s26.313 1.067 42.667 3.2v-430.933l-298.667 128-298.667-128z" />
<glyph unicode="&#xe904;" glyph-name="car" d="M256 149.333v-22.4c0-17.779-6.044-32.713-18.133-44.8s-27.377-18.133-45.867-18.133c-17.777 0-32.896 6.229-45.355 18.688s-18.673 27.563-18.645 45.312v320l89.6 256c4.267 12.8 11.904 23.111 22.912 30.933s23.282 11.733 36.821 11.733h469.333c13.513 0 25.783-3.911 36.821-11.733s18.675-18.133 22.912-30.933l89.6-256v-321.067c0-17.779-6.046-32.713-18.133-44.8s-27.379-18.133-45.867-18.133c-17.779 0-32.883 6.229-45.312 18.688s-18.658 27.563-18.688 45.312v21.333h-512zM247.467 533.333h529.067l-44.8 128h-439.467l-44.8-128zM320 277.333c17.778 0 32.896 6.229 45.355 18.688s18.674 27.563 18.645 45.312c0 17.779-6.229 32.896-18.688 45.355s-27.563 18.675-45.312 18.645c-17.777 0-32.896-6.229-45.355-18.688s-18.673-27.563-18.645-45.312c0-17.779 6.229-32.896 18.688-45.355s27.563-18.675 45.312-18.645zM704 277.333c17.779 0 32.896 6.229 45.355 18.688s18.675 27.563 18.645 45.312c0 17.779-6.229 32.896-18.688 45.355s-27.563 18.675-45.312 18.645c-17.779 0-32.896-6.229-45.355-18.688s-18.675-27.563-18.645-45.312c0-17.779 6.229-32.896 18.688-45.355s27.563-18.675 45.312-18.645zM213.333 234.667h597.333v213.333h-597.333v-213.333z" />
<glyph unicode="&#xe905;" glyph-name="check" d="M384.001 270.080l-177.92 177.92-60.587-60.16 238.507-238.507 511.999 512-60.16 60.16-451.839-451.413z" />
<glyph unicode="&#xe906;" glyph-name="chevron-bottom" d="M268.497 563.503c16.663 16.662 43.677 16.662 60.34 0l183.163-183.164 183.164 183.164c16.661 16.662 43.678 16.662 60.339 0s16.661-43.678 0-60.34l-213.333-213.333c-16.661-16.661-43.678-16.661-60.339 0l-213.334 213.333c-16.662 16.661-16.662 43.677 0 60.34z" />
<glyph unicode="&#xe907;" glyph-name="chevron-left" d="M627.503 691.503c16.661-16.663 16.661-43.677 0-60.34l-183.164-183.163 183.164-183.164c16.661-16.661 16.661-43.678 0-60.339s-43.678-16.661-60.339 0l-213.334 213.333c-16.662 16.661-16.662 43.678 0 60.339l213.334 213.334c16.661 16.662 43.678 16.662 60.339 0z" />
<glyph unicode="&#xe908;" glyph-name="chevron-right" d="M396.497 691.503c16.663 16.662 43.678 16.662 60.34 0l213.333-213.334c16.661-16.661 16.661-43.678 0-60.339l-213.333-213.333c-16.661-16.661-43.677-16.661-60.34 0s-16.662 43.678 0 60.339l183.164 183.164-183.164 183.163c-16.662 16.663-16.662 43.677 0 60.34z" />
<glyph unicode="&#xe909;" glyph-name="chevron-top" d="M481.83 606.17c16.661 16.662 43.678 16.662 60.339 0l213.333-213.334c16.661-16.661 16.661-43.678 0-60.339s-43.678-16.661-60.339 0l-183.164 183.164-183.163-183.164c-16.663-16.661-43.677-16.661-60.34 0s-16.662 43.678 0 60.339l213.334 213.334z" />
<glyph unicode="&#xe90a;" glyph-name="close" d="M780.8 716.373c-3.947 3.955-8.636 7.093-13.798 9.234s-10.697 3.243-16.282 3.243c-5.589 0-11.123-1.102-16.282-3.243-5.163-2.141-9.852-5.279-13.798-9.234l-208.64-208.213-208.641 208.64c-3.95 3.95-8.64 7.084-13.801 9.222s-10.693 3.238-16.279 3.238c-5.586 0-11.118-1.1-16.279-3.238s-9.851-5.271-13.801-9.222c-3.95-3.95-7.084-8.64-9.222-13.801s-3.238-10.693-3.238-16.279c0-5.586 1.1-11.118 3.238-16.279s5.271-9.851 9.222-13.801l208.641-208.64-208.641-208.64c-3.95-3.951-7.084-8.64-9.222-13.803-2.138-5.158-3.238-10.692-3.238-16.277s1.1-11.119 3.238-16.282c2.138-5.158 5.271-9.847 9.222-13.798s8.64-7.083 13.801-9.22c5.161-2.138 10.693-3.238 16.279-3.238s11.118 1.101 16.279 3.238c5.161 2.138 9.851 5.269 13.801 9.22l208.641 208.64 208.64-208.64c3.951-3.951 8.64-7.083 13.798-9.22 5.163-2.138 10.692-3.238 16.282-3.238 5.585 0 11.119 1.101 16.277 3.238 5.163 2.138 9.852 5.269 13.803 9.22s7.083 8.64 9.22 13.798c2.138 5.163 3.238 10.697 3.238 16.282s-1.101 11.119-3.238 16.277c-2.138 5.163-5.269 9.852-9.22 13.803l-208.64 208.64 208.64 208.64c16.213 16.213 16.213 43.52 0 59.733z" />
<glyph unicode="&#xe90b;" glyph-name="date" d="M341.333 362.667c-12.089 0-22.229 4.096-30.421 12.288s-12.273 18.317-12.245 30.379c0 12.087 4.096 22.229 12.288 30.421s18.319 12.275 30.379 12.245c12.089 0 22.229-4.096 30.421-12.288s12.274-18.317 12.245-30.379c0-12.087-4.096-22.229-12.288-30.421s-18.318-12.275-30.379-12.245zM512 362.667c-12.087 0-22.229 4.096-30.421 12.288s-12.275 18.317-12.245 30.379c0 12.087 4.096 22.229 12.288 30.421s18.317 12.275 30.379 12.245c12.087 0 22.229-4.096 30.421-12.288s12.275-18.317 12.245-30.379c0-12.087-4.096-22.229-12.288-30.421s-18.317-12.275-30.379-12.245zM682.667 362.667c-12.087 0-22.229 4.096-30.421 12.288s-12.275 18.317-12.245 30.379c0 12.087 4.096 22.229 12.288 30.421s18.317 12.275 30.379 12.245c12.087 0 22.229-4.096 30.421-12.288s12.275-18.317 12.245-30.379c0-12.087-4.096-22.229-12.288-30.421s-18.317-12.275-30.379-12.245zM213.333 21.333c-23.467 0-43.563 8.363-60.288 25.088s-25.073 36.809-25.045 60.245v597.333c0 23.467 8.363 43.563 25.088 60.288s36.807 25.074 60.245 25.045h42.667v85.333h85.333v-85.333h341.333v85.333h85.333v-85.333h42.667c23.467 0 43.563-8.363 60.288-25.088s25.075-36.807 25.045-60.245v-597.333c0-23.467-8.363-43.563-25.088-60.288s-36.809-25.075-60.245-25.045h-597.333zM213.333 106.667h597.333v426.667h-597.333v-426.667zM213.333 618.667h597.333v85.333h-597.333v-85.333z" />
<glyph unicode="&#xe90c;" glyph-name="facebook" d="M597.333 384h106.667l42.667 170.667h-149.333v85.333c0 43.947 0 85.333 85.333 85.333h64v143.36c-13.909 1.835-66.432 5.973-121.899 5.973-115.84 0-198.101-70.699-198.101-200.533v-119.467h-128v-170.667h128v-362.667h170.667v362.667z" />
<glyph unicode="&#xe90d;" glyph-name="filter" d="M597.333 874.667c23.565 0 42.667-19.103 42.667-42.667v-170.667c0-23.564-19.102-42.667-42.667-42.667s-42.667 19.103-42.667 42.667v42.667h-426.667c-23.564 0-42.667 19.103-42.667 42.667s19.103 42.667 42.667 42.667h426.667v42.667c0 23.564 19.102 42.667 42.667 42.667zM725.333 746.667c0 23.564 19.102 42.667 42.667 42.667h128c23.565 0 42.667-19.103 42.667-42.667s-19.102-42.667-42.667-42.667h-128c-23.565 0-42.667 19.103-42.667 42.667zM469.333 576c23.565 0 42.667-19.103 42.667-42.667v-42.667h426.667c23.565 0 42.667-19.102 42.667-42.667s-19.102-42.667-42.667-42.667h-426.667v-42.667c0-23.565-19.102-42.667-42.667-42.667s-42.667 19.102-42.667 42.667v170.667c0 23.564 19.102 42.667 42.667 42.667zM85.333 448c0 23.565 19.103 42.667 42.667 42.667h170.667c23.564 0 42.667-19.102 42.667-42.667s-19.103-42.667-42.667-42.667h-170.667c-23.564 0-42.667 19.102-42.667 42.667zM597.333 277.333c23.565 0 42.667-19.102 42.667-42.667v-170.667c0-23.565-19.102-42.667-42.667-42.667s-42.667 19.102-42.667 42.667v42.667h-426.667c-23.564 0-42.667 19.102-42.667 42.667s19.103 42.667 42.667 42.667h426.667v42.667c0 23.565 19.102 42.667 42.667 42.667zM725.333 149.333c0 23.565 19.102 42.667 42.667 42.667h128c23.565 0 42.667-19.102 42.667-42.667s-19.102-42.667-42.667-42.667h-128c-23.565 0-42.667 19.102-42.667 42.667z" />
<glyph unicode="&#xe90e;" glyph-name="google" d="M130.731 639.573c35.499 70.688 89.957 130.112 157.288 171.628s144.882 63.49 223.982 63.465c114.987 0 211.584-42.283 285.44-111.147l-122.325-122.368c-44.245 42.283-100.48 63.829-163.115 63.829-111.147 0-205.227-75.093-238.72-175.915-8.533-25.6-13.397-52.907-13.397-81.067s4.864-55.467 13.397-81.067c33.536-100.864 127.573-175.915 238.72-175.915 57.387 0 106.24 15.147 144.469 40.747 22.161 14.592 41.135 33.527 55.774 55.659s24.636 47.002 29.389 73.109h-229.632v165.035h401.835c5.035-27.904 7.765-57.003 7.765-87.253 0-129.963-46.507-239.36-127.232-313.6-70.571-65.195-167.168-103.381-282.368-103.381-56.038-0.021-111.529 10.999-163.305 32.431-51.776 21.436-98.82 52.864-138.444 92.489-39.624 39.62-71.051 86.665-92.486 138.441s-32.454 107.268-32.432 163.307c0 68.864 16.469 133.973 45.397 191.573z" />
<glyph unicode="&#xe90f;" glyph-name="house" d="M501.961 739.639l250.982-225.881v-392.034h-100.395v301.18h-301.176v-301.18h-100.392v392.034l250.98 225.881zM501.961 874.667l-501.961-451.763h150.588v-401.57h301.175v301.175h100.395v-301.175h301.175v401.57h150.588z" />
<glyph unicode="&#xe910;" glyph-name="language" d="M853.333 874.667h-455.11v-142.222h56.889v85.333h398.221c17.067 0 28.446-11.378 28.446-28.445v-312.887c0-17.067-11.379-28.446-28.446-28.446h-369.775v-199.113h-150.757l-105.245-82.487v82.487h-85.333c-17.067 0-28.444 11.379-28.444 28.446v312.889c0 17.067 11.377 28.445 28.444 28.445h369.776v56.889h-369.776c-48.355 0-85.333-36.977-85.333-85.333v-312.889c0-48.354 36.978-85.333 85.333-85.333h28.445v-145.067l179.2 145.067h190.577v199.113h312.887c48.358 0 85.333 36.975 85.333 85.333v312.887c0 48.355-36.975 85.333-85.333 85.333zM176.354 308.621h68.267l17.067 45.513h88.178l17.067-45.513h68.268l-96.713 253.157h-68.267l-93.867-253.157zM304.354 490.667l28.445-88.179h-56.889l28.445 88.179zM568.892 476.446c31.287 0 73.954 8.533 113.775 28.442 39.825-19.908 85.333-28.442 113.779-28.442v56.887c0 0-28.446 0-59.733 11.378 34.133 34.133 59.733 85.333 59.733 159.289v28.445h-85.333v56.889h-56.887v-56.889h-85.333v-56.889h167.821c-5.687-51.2-28.446-82.489-54.046-102.4-17.067 14.223-34.133 34.133-45.508 59.733h-59.733c11.375-36.977 28.442-65.422 51.2-88.177-28.446-11.378-54.046-11.378-59.733-11.378v-56.887z" />
<glyph unicode="&#xe911;" glyph-name="lock" d="M541.952 866.347l298.667-112c16.269-6.098 30.289-17.018 40.183-31.298 9.899-14.281 15.202-31.242 15.198-48.617v-228.821c0-71.313-19.857-141.218-57.348-201.886-37.491-60.663-91.132-109.687-154.918-141.581l-143.104-71.552c-8.887-4.446-18.692-6.758-28.629-6.758s-19.742 2.313-28.629 6.758l-143.104 71.552c-63.785 31.893-117.428 80.917-154.92 141.581-37.491 60.668-57.349 130.573-57.347 201.886v228.821c-0.002 17.375 5.299 34.336 15.196 48.617s23.916 25.2 40.186 31.298l298.667 112c19.311 7.239 40.593 7.239 59.904 0zM512 786.432l-298.667-112v-228.821c0.010-55.462 15.462-109.824 44.626-156.996 29.164-47.177 70.886-85.299 120.494-110.097l133.547-66.859 133.547 66.773c49.621 24.806 91.354 62.942 120.516 110.131 29.167 47.189 44.608 101.572 44.604 157.047v228.821l-298.667 112zM512 618.667c18.214 0.008 35.951-5.812 50.62-16.608s25.498-26.002 30.903-43.394c5.406-17.392 5.107-36.057-0.858-53.265-5.961-17.212-17.276-32.060-32.282-42.381l-5.717-3.627v-139.392c-0.013-10.876-4.177-21.333-11.639-29.244-7.467-7.906-17.673-12.663-28.527-13.303-10.854-0.636-21.547 2.897-29.884 9.877-8.341 6.98-13.7 16.879-14.985 27.678l-0.299 4.992v139.392c-16.29 9.382-29.022 23.881-36.224 41.246-7.203 17.361-8.471 36.619-3.605 54.776 4.864 18.158 15.586 34.201 30.502 45.638 14.921 11.438 33.195 17.629 51.994 17.614z" />
<glyph unicode="&#xe912;" glyph-name="mail" d="M170.667 106.667c-23.467 0-43.563 8.363-60.288 25.088s-25.073 36.809-25.045 60.245v512c0 23.467 8.363 43.563 25.088 60.288s36.807 25.073 60.245 25.045h682.667c23.467 0 43.563-8.363 60.288-25.088s25.075-36.807 25.045-60.245v-512c0-23.467-8.363-43.563-25.088-60.288s-36.809-25.075-60.245-25.045h-682.667zM512 405.333l-341.333 213.333v-426.667h682.667v426.667l-341.333-213.333zM512 490.667l341.333 213.333h-682.667l341.333-213.333zM170.667 618.667v0z" />
<glyph unicode="&#xe913;" glyph-name="map" d="M640 64l-256 89.6-198.4-76.8c-14.222-5.687-27.378-4.083-39.467 4.821s-18.133 20.809-18.133 35.712v597.333c0 9.245 2.674 17.422 8.021 24.533s12.629 12.445 21.845 16l226.133 76.8 256-89.6 198.4 76.8c14.221 5.689 27.379 4.082 39.467-4.821s18.133-20.807 18.133-35.712v-597.333c0-9.246-2.675-17.421-8.021-24.533s-12.629-12.446-21.845-16l-226.133-76.8zM597.333 168.533v499.2l-170.667 59.733v-499.2l170.667-59.733zM682.667 168.533l128 42.667v505.6l-128-49.067v-499.2zM213.333 179.2l128 49.067v499.2l-128-42.667v-505.6z" />
<glyph unicode="&#xe914;" glyph-name="menu" d="M512 800c-194.404 0-352-157.596-352-352 0-194.402 157.596-352 352-352 194.402 0 352 157.598 352 352 0 194.404-157.598 352-352 352zM96 448c0 229.751 186.249 416 416 416s416-186.249 416-416c0-229.751-186.249-416-416-416s-416 186.249-416 416zM464 640c0 26.51 21.491 48 48 48h0.427c26.509 0 48-21.49 48-48v-0.427c0-26.51-21.491-48-48-48h-0.427c-26.509 0-48 21.49-48 48v0.427zM464 448c0 26.509 21.491 48 48 48h0.427c26.509 0 48-21.491 48-48v-0.427c0-26.509-21.491-48-48-48h-0.427c-26.509 0-48 21.491-48 48v0.427zM464 256c0 26.509 21.491 48 48 48h0.427c26.509 0 48-21.491 48-48v-0.427c0-26.509-21.491-48-48-48h-0.427c-26.509 0-48 21.491-48 48v0.427z" />
<glyph unicode="&#xe915;" glyph-name="people" d="M190.476 585.748c-0.004 33.74 7.802 66.953 22.716 96.649s36.468 54.947 62.724 73.48c26.255 18.532 56.389 29.766 87.691 32.69s62.789-2.553 91.63-15.938c28.843-13.385 54.131-34.259 73.6-60.745 19.465-26.485 32.495-57.751 37.914-90.985 5.423-33.234 3.068-67.395-6.857-99.407-9.92-32.017-27.098-60.881-49.984-83.998 43.157-22.485 80.627-55.817 109.231-97.165 28.604-41.353 47.501-89.498 55.091-140.361 0.836-5.658 0.627-11.439-0.619-17.011s-3.499-10.829-6.635-15.462c-3.136-4.638-7.091-8.563-11.639-11.558-4.553-2.995-9.604-5.001-14.874-5.897-5.274-0.9-10.654-0.674-15.846 0.666-5.188 1.335-10.078 3.755-14.396 7.125-4.318 3.366-7.979 7.612-10.765 12.497-2.79 4.885-4.655 10.313-5.491 15.974-8.124 54.652-34.125 104.405-73.335 140.322s-89.058 55.65-140.596 55.65c-51.538 0-101.388-19.733-140.597-55.65s-65.211-85.67-73.334-140.322c-0.839-5.662-2.708-11.085-5.501-15.97s-6.453-9.131-10.773-12.493c-4.32-3.366-9.215-5.786-14.405-7.117-5.19-1.335-10.575-1.557-15.845-0.653-5.27 0.9-10.324 2.906-14.871 5.905s-8.501 6.929-11.635 11.567c-3.133 4.642-5.385 9.899-6.626 15.471s-1.449 11.354-0.609 17.015c7.601 50.842 26.505 98.965 55.11 140.297 28.605 41.327 66.067 74.641 109.212 97.114-18.865 19.021-33.896 41.997-44.162 67.507s-15.549 53.011-15.522 80.8zM677.914 672.988c31.467-0.023 62.255-9.856 88.619-28.303s47.177-44.717 59.908-75.62c12.727-30.903 16.832-65.111 11.81-98.468s-18.953-64.435-40.102-89.455c32.969-17.574 62.259-42.172 86.093-72.286 23.838-30.114 41.719-65.122 52.557-102.895 2.146-7.33 2.449-15.142 0.875-22.639-1.57-7.501-4.962-14.417-9.83-20.053s-11.038-9.788-17.882-12.032c-6.848-2.249-14.123-2.509-21.094-0.759-6.963 1.741-13.376 5.423-18.594 10.671-5.222 5.244-9.062 11.878-11.14 19.226-9.707 33.719-27.392 64.158-51.337 88.337-23.94 24.183-53.316 41.28-85.252 49.617-8.87 2.3-16.759 7.74-22.4 15.441s-8.7 17.216-8.687 27.017v20.471c-0.004 8.119 2.099 16.081 6.080 22.989 3.981 6.903 9.677 12.48 16.448 16.094 16.422 8.738 29.606 23.181 37.419 40.986 7.808 17.801 9.788 37.914 5.606 57.075-4.177 19.159-14.263 36.239-28.625 48.466-14.357 12.227-32.145 18.881-50.47 18.882-10.773 0-21.103 4.596-28.723 12.776-7.616 8.18-11.895 19.275-11.895 30.844s4.279 22.664 11.895 30.844c7.62 8.18 17.95 12.776 28.723 12.776zM380.035 702.068c-14.425 0.35-28.77-2.398-42.192-8.083s-25.652-14.192-35.97-25.022c-10.319-10.83-18.518-23.765-24.118-38.045s-8.485-29.617-8.489-45.111c-0.003-15.494 2.875-30.833 8.468-45.116s13.786-27.223 24.1-38.060c10.313-10.833 22.539-19.349 35.959-25.041s27.763-8.448 42.188-8.102c28.302 0.67 55.236 13.214 75.033 34.944s30.886 50.918 30.891 81.317c0.009 30.4-11.068 59.595-30.857 81.335-19.785 21.74-46.711 34.298-75.013 34.985z" />
<glyph unicode="&#xe916;" glyph-name="play" d="M960 448c0.026-10.863-2.761-21.551-8.085-31.023-5.329-9.468-13.013-17.399-22.315-23.019l-576.32-352.559c-9.716-5.948-20.845-9.199-32.237-9.408s-22.633 2.624-32.563 8.209c-9.836 5.5-18.029 13.517-23.738 23.236-5.708 9.715-8.726 20.774-8.742 32.043v705.041c0.017 11.269 3.034 22.33 8.742 32.045s13.902 17.736 23.738 23.235c9.93 5.586 21.172 8.42 32.563 8.209s22.52-3.459 32.237-9.409l576.32-352.559c9.301-5.619 16.986-13.551 22.315-23.019 5.325-9.472 8.111-20.156 8.085-31.023z" />
<glyph unicode="&#xe917;" glyph-name="plus" d="M512.299 827.837c-5.589 0.006-11.123-1.091-16.286-3.226-5.167-2.136-9.856-5.269-13.807-9.22s-7.087-8.643-9.22-13.807c-2.138-5.164-3.234-10.698-3.23-16.286l-0.299-294.759h-295.063c-5.586 0-11.118-1.101-16.279-3.238s-9.85-5.269-13.801-9.22c-3.95-3.951-7.084-8.64-9.222-13.803s-3.238-10.692-3.238-16.277c0-5.589 1.1-11.119 3.238-16.282 2.138-5.158 5.271-9.847 9.222-13.798s8.64-7.087 13.801-9.225c5.161-2.138 10.693-3.238 16.279-3.238h295.063v-295.061c0-5.585 1.101-11.115 3.238-16.277s5.269-9.852 9.22-13.803c3.951-3.947 8.64-7.083 13.798-9.22 5.163-2.138 10.697-3.238 16.282-3.238s11.119 1.101 16.277 3.238c5.163 2.138 9.852 5.274 13.803 9.22 3.951 3.951 7.083 8.64 9.22 13.803s3.238 10.692 3.238 16.277v295.061h295.061c5.585 0 11.119 1.101 16.282 3.238 5.158 2.138 9.847 5.274 13.798 9.225s7.083 8.64 9.22 13.798c2.138 5.163 3.238 10.692 3.238 16.282 0 5.585-1.101 11.115-3.238 16.277s-5.269 9.852-9.22 13.803c-3.951 3.951-8.64 7.083-13.798 9.22-5.163 2.138-10.697 3.238-16.282 3.238h-295.061v295.061c0 22.929-19.307 42.238-42.236 42.238z" />
<glyph unicode="&#xe918;" glyph-name="room" d="M128 64v85.333h85.333v682.667h426.667v-42.667h170.667v-640h85.333v-85.333h-170.667v640h-85.333v-640h-512zM469.333 405.333c12.087 0 22.229 4.096 30.421 12.288s12.275 18.317 12.245 30.379c0 12.087-4.096 22.229-12.288 30.421s-18.317 12.275-30.379 12.245c-12.087 0-22.229-4.096-30.421-12.288s-12.274-18.317-12.245-30.379c0-12.087 4.096-22.229 12.288-30.421s18.317-12.275 30.379-12.245zM298.667 149.333h256v597.333h-256v-597.333z" />
<glyph unicode="&#xe919;" glyph-name="search" d="M464.896 874.667c-60.529-0.005-120.18-14.486-173.976-42.233s-100.176-67.958-135.271-117.276c-35.095-49.318-57.888-106.314-66.476-166.232s-2.723-121.022 17.107-178.212c19.83-57.19 53.048-108.809 96.885-150.549s97.019-72.393 155.111-89.399c58.092-17.007 119.411-19.874 178.837-8.367 59.422 11.511 115.234 37.065 162.778 74.53l163.093-163.089c8.422-8.137 19.703-12.638 31.411-12.535s22.912 4.796 31.189 13.077c8.282 8.282 12.979 19.482 13.082 31.189 0.098 11.712-4.403 22.993-12.535 31.415l-163.093 163.093c44.122 55.97 71.595 123.238 79.275 194.095 7.676 70.861-4.749 142.448-35.857 206.575s-79.642 118.199-140.045 156.031c-60.403 37.831-130.24 57.892-201.515 57.888zM174.618 495.070c0 76.987 30.583 150.821 85.021 205.259s128.272 85.021 205.257 85.021c76.988 0 150.822-30.583 205.261-85.021s85.022-128.272 85.022-205.259c0-76.988-30.583-150.822-85.022-205.261s-128.273-85.018-205.261-85.018c-76.985 0-150.819 30.579-205.257 85.018s-85.021 128.273-85.021 205.261z" />
<glyph unicode="&#xe91a;" glyph-name="search-help" d="M839.543 185.365c20.254 31.765 31.765 69.978 31.765 110.485 0 115.089-92.070 207.164-207.159 207.164s-207.164-92.075-207.164-207.164c0-115.089 92.075-207.159 207.164-207.159 40.051 0 77.798 11.511 109.564 31.305l143.629-141.329 63.991 63.991-141.79 142.707zM664.149 180.762c-30.524 0-59.797 12.126-81.382 33.711-21.581 21.581-33.707 50.854-33.707 81.378s12.126 59.797 33.707 81.382c21.585 21.581 50.859 33.707 81.382 33.707s59.797-12.126 81.378-33.707c21.585-21.585 33.711-50.859 33.711-81.382s-12.126-59.797-33.711-81.378c-21.581-21.585-50.854-33.711-81.378-33.711zM180.774 134.729v368.286h-138.107l460.356 414.319 460.356-414.319h-83.785c-39.654 41.512-90.513 70.618-146.394 83.783l-230.178 206.7-230.178-207.16v-359.538h100.358c7.826-33.148 21.176-63.991 39.13-92.070h-231.559z" />
<glyph unicode="&#xe91b;" glyph-name="share" d="M847.996 160c0.004-21.018-4.595-41.779-13.47-60.834-8.875-19.051-21.815-35.93-37.909-49.446s-34.948-23.351-55.249-28.804c-20.297-5.453-41.54-6.4-62.242-2.769s-40.358 11.75-57.591 23.787c-17.229 12.036-31.616 27.695-42.15 45.884-10.53 18.189-16.956 38.46-18.82 59.396-1.86 20.937 0.879 42.027 8.034 61.786l-212 136.201c-20.247-19.861-45.909-33.301-73.766-38.63-27.857-5.333-56.667-2.321-82.818 8.661-26.151 10.978-48.477 29.436-64.177 53.056s-24.076 51.354-24.076 79.714c0 28.361 8.376 56.094 24.076 79.714s38.026 42.077 64.177 53.057c26.151 10.98 54.961 13.993 82.818 8.661s53.519-18.771 73.766-38.632l212 136c-12.139 33.358-11.563 70.019 1.621 102.979s38.046 59.906 69.845 75.691c31.795 15.785 68.292 19.301 102.515 9.876 34.227-9.424 63.778-31.128 83.012-60.965 19.23-29.837 26.795-65.714 21.248-100.776s-23.821-66.851-51.324-89.292c-27.507-22.441-62.315-33.961-97.779-32.359-35.46 1.602-69.090 16.215-94.46 41.045l-211.999-136.198c11.458-31.663 11.458-66.338 0-98.001l211.999-136.201c20.241 19.81 45.875 33.212 73.694 38.524 27.819 5.316 56.585 2.313 82.705-8.64 26.121-10.948 48.427-29.359 64.137-52.924s24.124-51.238 24.183-79.561z" />
<glyph unicode="&#xe91c;" glyph-name="sort" d="M542.17 76.497c-16.661-16.661-43.678-16.661-60.339 0l-213.334 213.333c-16.662 16.661-16.662 43.678 0 60.339s43.677 16.661 60.34 0l183.163-183.164 183.164 183.164c16.661 16.661 43.678 16.661 60.339 0s16.661-43.678 0-60.339l-213.333-213.333zM481.83 819.503c16.661 16.662 43.678 16.662 60.339 0l213.333-213.333c16.661-16.663 16.661-43.677 0-60.34-16.661-16.661-43.678-16.661-60.339 0l-183.164 183.164-183.163-183.164c-16.663-16.661-43.677-16.661-60.34 0-16.662 16.663-16.662 43.677 0 60.34l213.334 213.333z" />
<glyph unicode="&#xe91d;" glyph-name="star" d="M838.4 574.293l-206.507 17.92-80.64 189.867c-14.507 34.56-64 34.56-78.507 0l-80.642-190.293-206.080-17.493c-37.547-2.987-52.907-49.92-24.32-74.667l156.587-135.68-46.933-201.387c-8.533-36.693 31.147-65.707 63.573-46.080l177.069 106.667 177.067-107.093c32.427-19.627 72.102 9.387 63.569 46.080l-46.929 201.813 156.582 135.68c28.587 24.747 13.653 71.68-23.889 74.667zM512 302.933l-160.429-96.853 42.667 182.613-141.653 122.88 186.882 16.213 72.533 171.947 72.96-172.373 186.88-16.213-141.653-122.88 42.667-182.613-160.853 97.28z" />
<glyph unicode="&#xe91e;" glyph-name="star-empty" d="M377.598 199.467l134.398 81.067 134.4-82.133-35.2 153.6 118.4 102.4-155.733 13.867-61.867 145.067-61.867-144-155.731-13.867 118.4-103.467-35.2-152.533zM511.996 180.267l-177.065-106.667c-7.822-4.979-16-7.113-24.533-6.4s-16 3.554-22.4 8.533c-6.4 4.979-11.378 11.191-14.933 18.645-3.555 7.479-4.267 15.842-2.133 25.088l46.933 201.6-156.8 135.467c-7.111 6.4-11.549 13.696-13.312 21.888-1.792 8.162-1.266 16.158 1.579 23.979s7.111 14.221 12.8 19.2c5.689 4.979 13.511 8.179 23.467 9.6l206.933 18.133 79.998 189.867c3.558 8.533 9.075 14.933 16.555 19.2 7.454 4.267 15.091 6.4 22.912 6.4 7.825 0 15.475-2.133 22.955-6.4 7.454-4.267 12.958-10.667 16.512-19.2l80-189.867 206.933-18.133c9.958-1.421 17.779-4.621 23.467-9.6 5.692-4.979 9.958-11.379 12.8-19.2 2.846-7.821 3.388-15.817 1.621-23.979-1.792-8.192-6.242-15.488-13.355-21.888l-156.8-135.467 46.933-201.6c2.133-9.246 1.425-17.609-2.133-25.088-3.554-7.454-8.533-13.666-14.933-18.645s-13.867-7.821-22.4-8.533c-8.533-0.713-16.708 1.421-24.533 6.4l-177.067 106.667z" />
<glyph unicode="&#xe91f;" glyph-name="star-full" d="M511.996 221.867l-157.865-120.533c-7.822-6.4-16.355-9.417-25.6-9.045-9.245 0.341-17.422 2.999-24.533 7.979s-12.615 11.733-16.512 20.267c-3.925 8.533-4.11 17.779-0.555 27.733l60.8 197.333-154.667 109.867c-8.533 5.687-13.867 13.154-16 22.4s-1.778 17.779 1.067 25.6c2.845 7.821 7.822 14.763 14.933 20.821 7.111 6.029 15.645 9.045 25.6 9.045h190.933l61.865 204.8c3.558 9.956 9.075 17.607 16.555 22.955 7.454 5.319 15.445 7.979 23.979 7.979s16.529-2.659 23.979-7.979c7.484-5.347 13.001-12.999 16.555-22.955l61.867-204.8h190.933c9.958 0 18.492-3.017 25.6-9.045 7.113-6.059 12.092-13.001 14.933-20.821 2.846-7.821 3.2-16.354 1.067-25.6s-7.467-16.713-16-22.4l-154.667-109.867 60.8-197.333c3.558-9.954 3.388-19.2-0.512-27.733-3.925-8.533-9.442-15.287-16.555-20.267-7.108-4.979-15.287-7.637-24.533-7.979-9.242-0.371-17.775 2.645-25.6 9.045l-157.867 120.533z" />
<glyph unicode="&#xe920;" glyph-name="star-half" d="M511.996 613.333v-332.8l134.4-82.133-35.2 153.6 118.4 102.4-155.733 13.867-61.867 145.067zM511.996 180.267l-177.065-106.667c-7.822-4.979-16-7.113-24.533-6.4s-16 3.554-22.4 8.533c-6.4 4.979-11.378 11.191-14.933 18.645-3.555 7.479-4.267 15.842-2.133 25.088l46.933 201.6-156.8 135.467c-7.111 6.4-11.549 13.696-13.312 21.888-1.792 8.162-1.266 16.158 1.579 23.979s7.111 14.221 12.8 19.2c5.689 4.979 13.511 8.179 23.467 9.6l206.933 18.133 79.998 189.867c3.558 8.533 9.075 14.933 16.555 19.2 7.454 4.267 15.091 6.4 22.912 6.4 7.825 0 15.475-2.133 22.955-6.4 7.454-4.267 12.958-10.667 16.512-19.2l80-189.867 206.933-18.133c9.958-1.421 17.779-4.621 23.467-9.6 5.692-4.979 9.958-11.379 12.8-19.2 2.846-7.821 3.388-15.817 1.621-23.979-1.792-8.192-6.242-15.488-13.355-21.888l-156.8-135.467 46.933-201.6c2.133-9.246 1.425-17.609-2.133-25.088-3.554-7.454-8.533-13.666-14.933-18.645s-13.867-7.821-22.4-8.533c-8.533-0.713-16.708 1.421-24.533 6.4l-177.067 106.667z" />
<glyph unicode="&#xe921;" glyph-name="travel" d="M170.667 234.667v-85.333h682.667v85.333h-682.667zM298.667 704v85.333c0 23.467 8.363 43.563 25.088 60.288s36.807 25.073 60.245 25.045h256c23.467 0 43.563-8.363 60.288-25.088s25.075-36.807 25.045-60.245v-85.333h128c23.467 0 43.563-8.363 60.288-25.088s25.075-36.807 25.045-60.245v-469.333c0-23.467-8.363-43.563-25.088-60.288s-36.809-25.075-60.245-25.045h-682.667c-23.467 0-43.563 8.363-60.288 25.088s-25.073 36.809-25.045 60.245v469.333c0 23.467 8.363 43.563 25.088 60.288s36.807 25.073 60.245 25.045h128zM170.667 362.667h682.667v256h-128v-85.333h-85.333v85.333h-256v-85.333h-85.333v85.333h-128v-256zM384 704h256v85.333h-256v-85.333z" />
<glyph unicode="&#xe922;" glyph-name="user" d="M941.602 120c-56.102 96.734-143.202 171.708-247.202 212.8 51.042 38.281 88.747 91.657 107.772 152.559 19.025 60.9 18.406 126.244-1.771 186.774s-58.889 113.178-110.647 150.484c-51.763 37.307-113.95 57.382-177.754 57.382s-125.99-20.076-177.751-57.382c-51.761-37.307-90.471-89.954-110.648-150.484s-20.797-125.874-1.772-186.774c19.024-60.902 56.729-114.278 107.772-152.559-104.001-41.092-191.098-116.066-247.2-212.8-6.365-11.034-8.087-24.141-4.786-36.446 3.301-12.301 11.353-22.788 22.386-29.154s24.143-8.085 36.445-4.787c12.303 3.302 22.79 11.354 29.155 22.387 35.109 60.804 85.603 111.292 146.409 146.398 60.806 35.102 129.778 53.585 199.991 53.585s139.187-18.483 199.991-53.585c60.804-35.106 111.3-85.594 146.411-146.398 4.245-7.275 10.317-13.316 17.613-17.523 7.296-4.211 15.565-6.443 23.987-6.477 8.431-0.068 16.721 2.142 24 6.4 5.466 3.149 10.257 7.343 14.097 12.348 3.844 5.001 6.665 10.714 8.299 16.806 1.634 6.089 2.052 12.446 1.229 18.701-0.823 6.251-2.871 12.284-6.025 17.745zM304.001 576c0 41.138 12.199 81.353 35.054 115.558s55.341 60.866 93.346 76.608c38.007 15.743 79.829 19.862 120.179 11.837 40.346-8.026 77.41-27.836 106.5-56.925 29.086-29.090 48.896-66.152 56.922-106.499s3.908-82.17-11.836-120.178c-15.74-38.007-42.402-70.49-76.608-93.346s-74.419-35.055-115.558-35.055c-55.164 0-108.070 21.914-147.078 60.924-39.008 39.006-60.922 91.913-60.922 147.076z" />
<glyph unicode="&#xe923;" glyph-name="minus" d="M912 448c0-12.732-5.056-24.939-14.059-33.941s-21.21-14.059-33.941-14.059h-704c-12.73 0-24.94 5.056-33.941 14.059s-14.059 21.21-14.059 33.941c0 12.732 5.057 24.939 14.059 33.941s21.211 14.059 33.941 14.059h704c12.732 0 24.939-5.056 33.941-14.059s14.059-21.21 14.059-33.941z" />
<glyph unicode="&#xe924;" glyph-name="twitter" d="M958.293 704c-32.853-14.933-68.267-24.747-104.96-29.44 37.547 22.613 66.56 58.453 80.213 101.547-35.413-21.333-74.667-36.267-116.053-44.8-33.707 36.693-81.067 58.027-134.827 58.027-100.267 0-182.187-81.92-182.187-183.040 0-14.507 1.707-28.587 4.693-41.813-151.892 7.68-287.145 80.64-377.172 191.147-15.787-26.88-24.747-58.453-24.747-91.733 0-63.573 32-119.893 81.493-151.893-30.293 0-58.453 8.533-83.2 21.333v-1.28c0-88.747 63.147-162.987 146.773-179.627-26.849-7.347-55.036-8.371-82.347-2.987 11.589-36.373 34.284-68.198 64.897-91.004 30.612-22.81 67.602-35.447 105.77-36.143-64.698-51.217-144.896-78.903-227.413-78.507-14.507 0-29.013 0.853-43.52 2.56 81.067-52.053 177.493-82.347 280.747-82.347 336.212 0 520.958 279.040 520.958 520.96 0 8.107 0 15.787-0.427 23.893 35.84 25.6 66.56 58.027 91.307 95.147z" />
<glyph unicode="&#xe925;" glyph-name="youtube" d="M522.411 789.333c22.784-0.128 79.787-0.683 140.373-3.115l21.504-0.939c60.971-2.859 121.899-7.808 152.149-16.213 40.32-11.349 71.979-44.373 82.688-86.272 17.067-66.56 19.2-196.352 19.456-227.797l0.043-6.485v-7.424c-0.299-31.445-2.432-161.28-19.499-227.797-10.837-42.027-42.539-75.093-82.688-86.272-30.251-8.405-91.179-13.355-152.149-16.213l-21.504-0.981c-60.587-2.389-117.589-2.987-140.373-3.072l-10.027-0.043h-10.88c-48.213 0.299-249.856 2.475-314.027 20.309-40.277 11.349-71.979 44.373-82.688 86.272-17.067 66.56-19.2 196.352-19.456 227.797v13.909c0.256 31.445 2.389 161.28 19.456 227.797 10.837 42.027 42.539 75.093 82.731 86.229 64.128 17.877 265.813 20.053 314.027 20.309h20.864zM426.624 597.333v-298.667l256 149.333-256 149.333z" />
<glyph unicode="&#xe926;" glyph-name="edit" d="M823.467 579.2l-181.333 179.2 59.733 59.733c16.354 16.355 36.45 24.533 60.288 24.533s43.917-8.178 60.245-24.533l59.733-59.733c16.354-16.355 24.887-36.096 25.6-59.221s-7.113-42.851-23.467-59.179l-60.8-60.8zM761.6 516.267l-452.267-452.267h-181.333v181.333l452.267 452.267 181.333-181.333z" />
<glyph unicode="&#xe927;" glyph-name="floor" d="M128 21.333v85.333h149.333v192h192v192h192v192h192v149.333h85.333v-234.667h-192v-192h-192v-192h-192v-192h-234.667z" />
<glyph unicode="&#xe928;" glyph-name="thumbs-up" d="M563.639 916.514c45.001-5.131 88.461-17.397 118.541-52.133 29.781-34.264 38.686-81.266 38.686-135.64 0-27.541-5.133-65.992-9.259-96.54l-0.887-6.664h83.861c35.563 0 69.235-5.012 98.368-19.638 29.961-14.979 53.726-40.043 67.055-70.769 26.714-58.855 25.83-144.308 11.089-254.533l-2.359-18.044c-6.195-46.588-11.503-86.869-18.462-119.893-7.723-37.154-18.577-71.3-39.394-98.607-44.348-58.206-118.891-67.23-219.499-67.23-108.983 0-190.72 19.639-258.778 38.511-9.731 2.654-19.049 5.308-28.013 7.842-38.804 10.97-70.769 20.053-101.73 24.478-6.811-20.617-19.95-38.558-37.547-51.273-17.597-12.719-38.756-19.563-60.467-19.558h-58.974c-27.372 0-53.622 10.876-72.977 30.229s-30.228 45.606-30.228 72.977v442.304c0 56.968 46.235 103.203 103.204 103.203h58.974c18.083 0.002 35.85-4.748 51.52-13.773s28.694-22.010 37.766-37.652c15.215 6.193 34.795 15.805 54.138 29.959 39.572 28.897 77.728 75.782 77.728 154.158v29.487c0 70.886 58.62 137.822 137.643 128.799zM308.049 136.055c41.577-5.193 81.974-16.751 122.193-28.19l26.010-7.373c64.631-17.988 137.643-35.264 235.127-35.264 105.796 0 134.46 13.15 149.086 32.375 8.67 11.379 16.277 29.781 23.236 63.1 6.191 29.606 11.085 66.287 17.395 113.822l2.359 17.69c14.746 110.989 11.145 172.971-4.011 206.234-4.941 12.301-14.212 22.37-26.065 28.305-12.267 6.135-30.669 10.263-58.799 10.263h-103.202c-40.457 0-76.373 34.028-71.121 78.789 1.353 11.323 2.948 23 4.48 34.559 3.831 28.779 7.667 57.204 7.667 78.317 0 47.71-8.495 67.82-16.986 77.609-8.077 9.318-23.706 17.928-61.803 22.292-18.108 2.123-39.159-13.918-39.159-40.869v-29.487c0-113.348-57.677-184.47-113.997-225.573-28.204-20.518-59.364-36.625-92.412-47.77v-348.83zM204.845 537.076h-58.974c-3.91 0-7.66-1.553-10.425-4.319s-4.318-6.515-4.318-10.423v-442.304c0-8.141 6.605-14.746 14.743-14.746h58.974c3.91 0 7.66 1.553 10.425 4.318s4.318 6.515 4.318 10.428v442.304c0 3.908-1.553 7.659-4.318 10.423s-6.515 4.319-10.425 4.319z" />
<glyph unicode="&#xe929;" glyph-name="barn" d="M944.819 344.512h-63.876v373.292h4.279c7.398-0.008 14.571 2.554 20.292 7.249s9.634 11.229 11.068 18.488c1.438 7.259 0.311 14.792-3.191 21.311-3.499 6.519-9.156 11.621-16 14.432l-387.537 159.689c-7.791 3.212-16.542 3.212-24.333 0l-179.461-73.968v44.426c0 8.47-3.365 16.594-9.354 22.583s-14.113 9.354-22.583 9.354h-95.814c-8.471 0-16.594-3.365-22.583-9.354s-9.355-14.113-9.355-22.583v-110.218l-48.386-19.929c-6.845-2.812-12.501-7.913-16.002-14.432s-4.629-14.052-3.193-21.311c1.437-7.259 5.35-13.794 11.070-18.488s12.893-7.256 20.294-7.249h4.279v-373.292h-63.876c-8.47 0-16.594-3.362-22.583-9.353s-9.354-14.114-9.354-22.583v-307.401c0-8.474 3.365-16.597 9.354-22.583 5.99-5.99 14.113-9.357 22.583-9.357h894.262c8.469 0 16.593 3.366 22.583 9.357 5.986 5.986 9.353 14.11 9.353 22.583v307.401c0 8.469-3.366 16.593-9.353 22.583-5.99 5.99-14.114 9.353-22.583 9.353zM912.879 211.43l-40.273 69.21h40.273v-69.21zM609.472 366.485h-223.567v223.567h223.567v-223.567zM465.749 280.64v-243.529h-212.099l75.916 243.529h136.183zM529.626 280.64h136.183l75.917-243.529h-212.1v243.529zM497.685 874.874l226.185-93.195h-452.366l226.182 93.195zM210.247 877.492h31.938v-31.938c0.193-2.169 0.621-4.311 1.278-6.388l-33.216-13.638v51.963zM817.067 717.804v-351.318h-143.723v255.505c0 8.47-3.362 16.594-9.353 22.583s-14.114 9.354-22.583 9.354h-287.441c-8.47 0-16.594-3.365-22.583-9.354s-9.355-14.113-9.355-22.583v-255.505h-143.72v351.318h638.758zM122.769 280.64l-40.273-69.21v69.21h40.273zM82.496 84.412l114.178 196.228h65.984l-75.916-243.529h-104.245v47.3zM808.636 37.111l-75.917 243.529h65.984l114.176-196.228v-47.3h-104.243z" />
<glyph unicode="&#xe92a;" glyph-name="bed-and-breakfast" d="M204.431 260.48h213.914v-31.684h-213.914v31.684zM466.534 308.689h-310.313v-166.912h32.010l7.455 38.81h231.381l7.458-38.81h32.009v166.912zM501.658 405.069l108.625-132.241-107.191-104.794 26.257-26.257 116.284 118.967 117.291-118.967 26.231 26.257-118.558 118.127 12.574 12.983 9.69-9.664h34.138l79.177 86.647-16.115 16.119-63.552-63.548-8.887 8.909 62.259 64.858-16.119 16.119-64.836-62.221-8.909 8.87 63.548 63.548-16.119 16.141-86.647-79.177v-34.142l9.685-9.685-12.924-12.676-120.87 120.87-25.028-25.045zM835.563 572.39v178.258h65.25v-41.452l123.187 71.127-123.187 71.107v-41.452h-841.482v71.762h-59.331v-202.834h59.331v71.762h67.502v-178.258h-63.365v-558.142h835.481v558.122h-63.386zM759.215 572.39c-63.121 82.166-177.766 118.108-278.016 118.108s-214.877-35.942-277.996-118.108h-27.935v178.258h611.86v-178.258h-27.913zM481.199 631.167c99.469 0 190.997-32.276 246.865-118.109h111.556v-439.479h-716.822v439.479h111.534c55.951 85.853 147.313 118.109 246.867 118.109zM233.8 382.357c56.32 19.251 98.775 18.573 155.197 0.102v-48.418h48.968v88.538c-88.678 29.103-164.598 30.229-253.133-0.102v-88.435h48.968v48.316z" />
<glyph unicode="&#xe92b;" glyph-name="change-order" d="M128 533.333c0 23.564 19.103 42.667 42.667 42.667h682.667c23.565 0 42.667-19.103 42.667-42.667s-19.102-42.667-42.667-42.667h-682.667c-23.564 0-42.667 19.102-42.667 42.667zM128 362.667c0 23.565 19.103 42.667 42.667 42.667h682.667c23.565 0 42.667-19.102 42.667-42.667s-19.102-42.667-42.667-42.667h-682.667c-23.564 0-42.667 19.102-42.667 42.667z" />
<glyph unicode="&#xe92c;" glyph-name="download" d="M176 64c-29.704 0-58.192 11.802-79.196 32.802-21.004 21.005-32.804 49.493-32.804 79.198v160c0 12.732 5.057 24.939 14.059 33.941s21.211 14.059 33.941 14.059c12.73 0 24.94-5.056 33.941-14.059s14.059-21.21 14.059-33.941v-160c0-8.832 7.168-16 16-16h672c4.245 0 8.311 1.685 11.315 4.685 2.999 3.004 4.685 7.070 4.685 11.315v160c0 12.732 5.056 24.939 14.059 33.941s21.21 14.059 33.941 14.059c12.732 0 24.939-5.056 33.941-14.059s14.059-21.21 14.059-33.941v-160c0-29.705-11.802-58.193-32.802-79.198-21.005-21.001-49.493-32.802-79.198-32.802h-672zM464 467.904v364.096c0 12.73 5.060 24.94 14.059 33.941 9.003 9.001 21.214 14.059 33.941 14.059 12.732 0 24.939-5.057 33.941-14.059s14.059-21.211 14.059-33.941v-364.096l126.080 126.016c4.454 4.454 9.745 7.988 15.565 10.399s12.058 3.651 18.355 3.651c6.302 0 12.54-1.241 18.359-3.651s11.106-5.944 15.561-10.399c4.454-4.454 7.987-9.743 10.398-15.563 2.415-5.82 3.652-12.058 3.652-18.357s-1.237-12.537-3.652-18.357c-2.411-5.82-5.943-11.108-10.398-15.563l-208-208c-4.45-4.459-9.737-7.996-15.561-10.411-5.82-2.411-12.058-3.652-18.359-3.652-6.298 0-12.54 1.242-18.359 3.652-5.82 2.415-11.106 5.952-15.561 10.411l-207.999 208c-4.454 4.454-7.988 9.743-10.399 15.563s-3.651 12.058-3.651 18.357c0 6.299 1.241 12.537 3.651 18.357s5.944 11.108 10.399 15.563c4.454 4.454 9.743 7.988 15.563 10.399s12.058 3.651 18.357 3.651c6.3 0 12.538-1.241 18.357-3.651s11.108-5.944 15.563-10.399l126.079-126.016z" />
<glyph unicode="&#xe92d;" glyph-name="glamping" d="M968.533 324.267c-89.6 76.8-354.133 320-422.4 448l-12.8 12.8-12.8 4.267c-4.267 0-4.267 0-8.533 0h-8.533c-4.267 0-4.267 0-4.267 0l-8.533-4.267-17.067-17.067c-76.799-149.333-413.866-439.467-418.132-443.733-12.8-12.8-17.066-29.867-12.8-42.667s17.067-21.333 29.867-25.6v-110.933c0-21.333 17.067-38.4 38.4-38.4h230.4c25.6 0 42.667 17.067 42.667 38.4v128c34.133 21.333 89.599 64 127.999 115.2 38.4-51.2 93.867-93.867 128-115.2v-128c0-21.333 17.067-38.4 38.4-38.4h230.4c21.333 0 38.4 17.067 38.4 38.4v110.933c12.8 4.267 21.333 12.8 29.867 25.6 8.533 17.067 4.267 34.133-8.533 42.667zM870.4 256v-72.533h-153.6v72.533h153.6zM512 529.067c-21.333 0-38.4-17.067-38.4-38.4 0-46.933-81.066-119.467-140.799-153.6h-145.067c93.867 85.333 243.199 230.4 324.266 341.333 81.067-110.933 230.4-256 324.267-341.333h-145.067c-59.733 38.4-140.8 106.667-140.8 153.6 0 21.333-17.067 38.4-38.4 38.4zM307.201 256v-72.533h-153.6v72.533h153.6z" />
<glyph unicode="&#xe92e;" glyph-name="info" d="M512 234.667c12.087 0 22.229 4.096 30.421 12.288 8.162 8.162 12.245 18.291 12.245 30.379v171.733c0 12.087-4.083 22.046-12.245 29.867-8.192 7.821-18.334 11.733-30.421 11.733s-22.217-4.083-30.379-12.245c-8.192-8.192-12.288-18.334-12.288-30.421v-171.733c0-12.087 4.096-22.046 12.288-29.867 8.162-7.821 18.291-11.733 30.379-11.733zM512 576c12.087 0 22.229 4.096 30.421 12.288 8.162 8.163 12.245 18.29 12.245 30.379s-4.083 22.229-12.245 30.421c-8.192 8.163-18.334 12.245-30.421 12.245s-22.217-4.082-30.379-12.245c-8.192-8.192-12.288-18.333-12.288-30.421s4.096-22.215 12.288-30.379c8.162-8.192 18.291-12.288 30.379-12.288zM512 21.333c-59.021 0-114.489 11.209-166.4 33.621-51.911 22.387-97.067 52.779-135.467 91.179s-68.793 83.554-91.179 135.467c-22.414 51.913-33.621 107.379-33.621 166.4s11.207 114.489 33.621 166.4c22.386 51.911 52.779 97.067 91.179 135.467s83.555 68.807 135.467 91.221c51.911 22.386 107.379 33.579 166.4 33.579s114.487-11.193 166.4-33.579c51.913-22.414 97.067-52.821 135.467-91.221s68.791-83.555 91.179-135.467c22.413-51.911 33.621-107.379 33.621-166.4s-11.209-114.487-33.621-166.4c-22.387-51.913-52.779-97.067-91.179-135.467s-83.554-68.791-135.467-91.179c-51.913-22.413-107.379-33.621-166.4-33.621zM512 106.667c94.579 0 175.117 33.237 241.621 99.712 66.475 66.505 99.712 147.042 99.712 241.621s-33.237 175.118-99.712 241.621c-66.505 66.475-147.042 99.712-241.621 99.712s-175.104-33.237-241.579-99.712c-66.503-66.503-99.755-147.043-99.755-241.621s33.251-175.117 99.755-241.621c66.475-66.475 147.001-99.712 241.579-99.712z" />
<glyph unicode="&#xe92f;" glyph-name="redo" d="M545.835 862.165c-8-8.001-12.493-18.852-12.493-30.165s4.493-22.164 12.493-30.165l55.168-55.168h-67.669c-198.485 0-362.667-164.181-362.667-362.667s164.181-362.667 362.667-362.667c198.485 0 362.667 164.181 362.667 362.667 0 11.315-4.497 22.17-12.497 30.17s-18.854 12.497-30.17 12.497c-11.315 0-22.17-4.497-30.17-12.497s-12.497-18.854-12.497-30.17c0-151.381-125.952-277.333-277.333-277.333s-277.333 125.952-277.333 277.333c0 151.381 125.952 277.333 277.333 277.333h67.669l-55.168-55.168c-7.774-8.047-12.075-18.825-11.977-30.012s4.587-21.888 12.497-29.799c7.91-7.911 18.611-12.398 29.798-12.495s21.965 4.203 30.012 11.975l128 128c8 8.001 12.493 18.852 12.493 30.165s-4.493 22.164-12.493 30.165l-128 128c-8 7.999-18.85 12.492-30.165 12.492s-22.165-4.494-30.165-12.492z" />
<glyph unicode="&#xe930;" glyph-name="thumbs-up-filled" d="M682.18 864.381c-30.080 34.735-73.54 47.002-118.541 52.133-79.023 9.023-137.643-57.912-137.643-128.799v-29.487c0-78.376-38.156-125.26-77.728-154.158-19.343-14.153-38.923-23.766-54.138-29.959-9.073 15.643-22.096 28.627-37.766 37.652s-33.437 13.775-51.52 13.773h-58.974c-56.969 0-103.204-46.235-103.204-103.203v-442.304c0-27.371 10.873-53.623 30.228-72.977s45.605-30.229 72.977-30.229h58.974c21.711-0.004 42.87 6.839 60.467 19.558 17.597 12.715 30.736 30.656 37.547 51.273 30.635-4.378 62.251-13.316 100.503-24.128l1.226-0.35c1.184-0.333 2.375-0.67 3.572-1.007 7.862-2.227 15.996-4.531 24.441-6.835 68.058-18.871 149.794-38.511 258.778-38.511 100.608 0 175.151 9.024 219.499 67.23 20.817 27.307 31.671 61.453 39.394 98.607 6.839 32.452 12.083 71.915 18.142 117.483l0.32 2.411 2.359 18.044c14.741 110.225 15.625 195.678-11.089 254.533-13.329 30.726-37.094 55.789-67.055 70.769-29.133 14.626-62.805 19.638-98.368 19.638h-83.861l0.887 6.664c4.126 30.548 9.259 68.999 9.259 96.54 0 54.374-8.905 101.376-38.686 135.64zM145.871 537.076h58.974c3.91 0 7.66-1.553 10.425-4.319s4.318-6.515 4.318-10.423v-442.304c0-3.913-1.553-7.659-4.318-10.428-2.765-2.765-6.515-4.318-10.425-4.318h-58.974c-8.139 0-14.743 6.605-14.743 14.746v442.304c0 3.908 1.553 7.659 4.318 10.423s6.515 4.319 10.425 4.319z" />
<glyph unicode="&#xe931;" glyph-name="undo" d="M520.832 862.165c8-8.001 12.493-18.852 12.493-30.165s-4.493-22.164-12.493-30.165l-55.168-55.168h67.669c198.485 0 362.667-164.181 362.667-362.667s-164.181-362.667-362.667-362.667c-198.485 0-362.667 164.181-362.667 362.667 0 11.315 4.495 22.17 12.497 30.17s18.854 12.497 30.17 12.497c11.316 0 22.168-4.497 30.17-12.497s12.497-18.854 12.497-30.17c0-151.381 125.952-277.333 277.333-277.333s277.333 125.952 277.333 277.333c0 151.381-125.952 277.333-277.333 277.333h-67.669l55.168-55.168c7.774-8.047 12.075-18.825 11.977-30.012s-4.587-21.888-12.497-29.799c-7.91-7.911-18.611-12.398-29.798-12.495s-21.965 4.203-30.012 11.975l-128 128c-7.999 8.001-12.492 18.852-12.492 30.165s4.494 22.164 12.492 30.165l128 128c8 7.999 18.85 12.492 30.165 12.492s22.165-4.494 30.165-12.492z" />
<glyph unicode="&#xe932;" glyph-name="villa" d="M170.667 64c-12.089 0-22.229 4.096-30.421 12.288s-12.273 18.317-12.245 30.379v483.2c0 9.245 2.674 17.251 8.021 24.021s11.919 11.918 19.712 15.445l469.333 180.267c14.221 5.689 27.379 4.267 39.467-4.267s18.133-20.267 18.133-35.2v-322.133h42.667c0 23.467 8.363 43.563 25.088 60.288s36.809 25.074 60.245 25.045c23.467 0 43.563-8.363 60.288-25.088s25.075-36.809 25.045-60.245v-341.333c0-12.087-4.096-22.229-12.288-30.421s-18.317-12.275-30.379-12.245h-682.667zM213.333 149.333h170.667v256c0 12.087 4.096 22.229 12.288 30.421s18.319 12.275 30.379 12.245h170.667v260.267l-384-148.267v-410.667zM469.333 149.333h128v85.333c0 12.087 4.096 22.229 12.288 30.421s18.317 12.275 30.379 12.245c12.087 0 22.229-4.096 30.421-12.288s12.275-18.317 12.245-30.379v-85.333h128v213.333h-341.333v-213.333z" />
<glyph unicode="&#xe933;" glyph-name="shopping-cart" d="M85.333 832c0 23.564 19.103 42.667 42.667 42.667h85.333c20.857 0 38.657-15.079 42.086-35.652l15.392-92.348h625.189c13.713 0 26.594-6.593 34.611-17.719 8.021-11.126 10.202-25.429 5.867-38.44l-128-383.999c-5.807-17.425-22.114-29.175-40.478-29.175h-469.333c-20.857 0-38.657 15.078-42.086 35.652l-79.392 476.348h-49.189c-23.564 0-42.667 19.103-42.667 42.667zM285.033 661.333l49.778-298.667h402.435l99.558 298.667h-551.771zM256 106.667c0 47.13 38.205 85.333 85.333 85.333s85.333-38.204 85.333-85.333c0-47.13-38.205-85.333-85.333-85.333s-85.333 38.204-85.333 85.333zM640 106.667c0 47.13 38.204 85.333 85.333 85.333s85.333-38.204 85.333-85.333c0-47.13-38.204-85.333-85.333-85.333s-85.333 38.204-85.333 85.333z" />
<glyph unicode="&#xe934;" glyph-name="phone" horiz-adv-x="964" d="M138.259 705.223l100.236 100.141c12.235 12.236 28.611 19.106 45.929 19.106s33.694-6.776 45.929-19.106l107.952-107.765c12.236-12.235 19.106-28.706 19.106-46.023 0-17.412-6.776-33.694-19.106-46.023l-84.329-84.424c19.212-44.76 46.814-85.429 81.318-119.812 34.541-34.729 74.918-62.115 119.718-81.504l84.332 84.422c12.234 12.235 28.612 19.106 45.929 19.106 8.541 0.031 17.004-1.642 24.889-4.923s15.041-8.103 21.040-14.183l108.044-107.763c12.234-12.234 19.107-28.708 19.107-46.026 0-17.408-6.776-33.696-19.107-46.020l-100.141-100.141c-20.896-20.896-49.694-32.852-79.246-32.852-6.12 0-12.047 0.476-18.071 1.506-124.612 20.522-248.283 86.871-348.142 186.639-99.765 99.951-166.024 223.622-186.729 348.328-5.93 35.388 5.93 71.812 31.341 97.317zM173.647 619.106c18.353-110.965 78.024-221.647 167.906-311.527 89.883-89.883 200.471-149.558 311.434-167.906 13.932-2.355 28.238 2.349 38.4 12.421l98.352 98.352-104.279 104.376-113.601-113.784-20.329 7.529c-61.64 22.661-117.615 58.458-164.046 104.906-46.431 46.444-82.207 102.432-104.848 164.080l-7.529 20.329 113.694 113.6-104.282 104.376-98.353-98.353c-10.164-10.165-14.87-24.471-12.517-38.4z" />
<glyph unicode="&#xe935;" glyph-name="sgr" horiz-adv-x="1092" d="M394.62 890.266c0 0 321.333 110.689 562.588-129.459l-60.553-38.913c0 0-81.012 103.767-305.6 130.436 0 0 141.603-56.103 196.537-192.069l-64.273-32.053c0 0-83.987 190.904-270.935 196.995l87.648-269.707c0 0-29.424-10.705-70.542-21.036l-86.815 267.316c0 0-137.942-69.635-109.641-305.211l-69.918-6.943c0 0-35.458 146.109 51.127 264.698 0 0-156.004-110.834-180.975-273.678l-73.268-1.434c0 0 24.971 295.648 394.62 411.055zM500.358 486.373c0 0 38.745 10.767 70.625 20.995l25.844-83.584c0 0 49.047 25.215 54.020 99.776l58.532 24.861c0 0 19.524-143.324-89.995-197.597l22.994-74.461c143.167 75.562 111.471 307.54 111.471 307.54l63.884 33.445c33.608-143.489-31.171-265.528-31.171-265.528 155.423 130.727 143.892 332.566 143.892 332.566l66.546 44.213c0 0 49.487-411.242-366.4-534.238-427.373-126.444-609.784 232.291-609.784 232.291l79.449 2.848c0 0 102.358-163.152 302.81-187.66 0 0-119.547 57.431-171.215 196.93l71.624 8.543c0 0 97.406-205.186 268.33-192.154l-22.869 74.004c-127.205-16.005-190.069 113.016-190.069 113.016l65.361 13.034c0 0 38.455-59.907 101.964-52.445l-25.844 83.604zM790.91 146.534h179.999c26.59 0.498 91.894-3.263 91.894-43.486 0-32.679-44.885-47.357-52.504-48.162l71.776-74.609h-105.028l-51.439 62.013h-46.572l0.294-62.013h-88.583l0.164 166.257zM879.555 75.298h41.165c20.664 0.498 40.66 5.632 40.475 20.617-0.232 15.135-21.709 18.336-41.206 18.336-24.617 0-40.264-0.205-40.264-0.205l-0.171-38.748zM383.25 665.356c5.826-1.268 40.514-10.54 31.421-60.344-8.533-46.645-42.659-43.547-48.485-41.947-6.201 1.724-39.578 12.679-32.191 58.638 8.157 50.512 42.616 45.128 49.255 43.653zM1047.77 896.533v-10.601h-6.219v27.335l13.251-0.083c2.191-0.146 3.98-0.624 5.414-1.372 2.41-1.351 3.645-3.534 3.645-6.548 0-2.287-0.649-3.949-1.918-4.989-1.379-1.057-3.031-1.692-4.765-1.829 1.399-0.228 2.731-0.768 3.891-1.58 1.604-1.289 2.417-3.326 2.417-6.112v-2.432c-0.007-0.279 0.014-0.556 0.055-0.831 0.041-0.27 0.096-0.535 0.191-0.79l0.232-0.769h-6.847c-0.266 1.245-0.403 2.512-0.416 3.783 0 1.124-0.157 2.244-0.457 3.326-0.355 0.977-1.024 2.577-2 2.952-0.785 0.272-1.604 0.419-2.43 0.436l-1.584 0.104h-2.458zM1055.43 901.522c0.935 0.665 1.393 1.767 1.393 3.243 0 1.497-0.751 2.536-2.205 3.118-1.345 0.436-2.751 0.627-4.164 0.561h-2.683v-7.92h3.748c1.372-0.073 2.737 0.275 3.912 0.998zM1071.322 913.501c5.12-5.612 6.513-14.925 4.212-22.387-2.813-7.462-9.81-14.447-17.278-16.318-4.908-1.199-10.063-0.907-14.8 0.837-4.745 1.744-8.854 4.861-11.817 8.954-2.266 3.303-3.7 7.105-4.192 11.081-0.485 3.977 0 8.012 1.406 11.763 3.27 8.855 12.609 14.925 20.999 15.86 8.861 0.457 16.336-2.806 21.47-9.79zM1051.887 919.155c-2.71 0.036-5.393-0.492-7.892-1.552-2.492-1.059-4.738-2.626-6.588-4.601-1.898-1.864-3.4-4.091-4.417-6.548s-1.522-5.094-1.495-7.753c-0.048-2.708 0.457-5.397 1.495-7.9 1.031-2.503 2.574-4.767 4.519-6.651 3.953-3.991 8.738-5.986 14.377-5.986 5.618 0 10.411 2.017 14.377 6.028 1.932 1.892 3.447 4.153 4.465 6.646 1.031 2.494 1.529 5.168 1.495 7.863 0.020 2.659-0.485 5.297-1.516 7.754-1.017 2.457-2.512 4.684-4.424 6.547-1.836 1.969-4.069 3.534-6.547 4.593s-5.154 1.591-7.851 1.56zM560.928 719.434c-5.452-3.181-38.080-29.268-5.889-70.924 30.11-39.016 64.403-19.332 70.229-15.423 6.764 4.573 36.125 30.826 7.492 69.719-31.463 42.757-65.507 20.308-71.833 16.628zM233.941 146.029c35.625-1.638 92.704-10.452 92.704-10.452l-31.463-27.334c0 0-111.474 17.811-112.015-2.437-0.291-11.639 75.495-28.058 99.051-34.959 17.687-5.202 50.836-16.882 50.732-37.396-0.125-25.777-53.271-55.064-164.889-53.050-44.885 0.792-119.964 6.82-147.244 13.264l41.535 27.75c0 0 47.985-7.4 75.515-8.854 22.66-1.208 57.891 1.208 60.408 14.466 2.518 13.264-53.416 24.214-80.531 32.242-28.529 8.438-67.462 14.213-67.982 41.984-0.687 35.922 79.781 41.472 101.548 43.158 26.011 2.014 56.204 2.826 82.631 1.618zM659.338 138.424l10.821-34.051c0 0-64.779 8.916-93.017 8.11-28.217-0.812-102.671-4.055-100.444-54.32 1.665-37.308 65.236-44.626 89.666-44.626 25.325 0 47.653 10.54 47.653 10.54l-11.612 39.909 79.657 0.164 25.448-78.159h-81.153l-2.123 6.178c0 0-37.934-11.872-83.609-11.872-42.347 0-166.784 13.804-166.055 81.087 0.852 75.414 144.351 84.398 190.13 85.163 49.734 0.792 94.639-8.124 94.639-8.124z" />
</font>
</defs>
</svg>
